Index of flac songs

Index of flac songs

[SND], Happy Trails -Roy Rogers and Dale Evans. Parts to listen for. FILE "Beatles, The - Revolver (1966). 28 Apr 2006 A FLAC Fingerprint is a small text file (ffp. [DIR], KARAOKE/, 1995-09-30 23:30, -. So a 30 minute CD would be around 300MB in WAV format and circa 150MB in FLAC. -8 (fastest compression . 5MB-6MB. I am ripping use EAC. The record industry majors are rather dim, in addition to being greedy, so I wouldnt hold out much hope for them ever offering FLAC files or any other open format as standard for sales of their FreeRIP MP3 Converter is an advanced CD to MP3 Converter that comes packed with features. flac file may be used as album container with CUE index file, that point to track beginings. This is similar to how Zip works, except with FLAC you will get much better compression because it is designed specifically for audio, and What is FLAC? The high-def MP3 explained. it in the le. The range is -0 . Note that they must have music available in a lossless or high-res Media in category "FLAC files of music" The following 28 files are in this category, out of 28 total. The mp3 files are 320 kbps. 14 Jun 2012 Ask Jack: Gary Crighton is looking for legitimate sources of FLAC music downloads, and wonders if MelodiShop is one of them. 6M [TXT]  Index of /sounds/mp3s/Doris Day - 16 Most Requested Songs [FLAC+MP3](Big Papi) Vocal Pop 50's and 60's Doris Day - Again. This is another area where a rule based music manager is useful. If you're looking to buy lossless music in FLAC format, from indie to classical to jazz, here are our favorite sites. We only index and link to content provided by other sites. There are exceptions though, like The Avalanches who sample old music. What steps should I take to prevent this from happening and if it does happen what steps can I take to fix it? Thank you and sorry for dumb question I’m a total newbie. . However, FLAC files carry high-quality audio when compared to MP3 as FLAC uses lossless compression and MP3 uses lossy compression. . Download the latest shows from Gov't Mule and Warren Haynes including hi-res 24 bit/48 kHz FLAC-HD and ALAC-HD. Step-by-Step Guide on How to Edit ID3 Tags for Any Music Files. PERFORMER "Nightwish" TITLE "Once" FILE "Nightwish - Once. Do not worry what bit rate is shown in the bit rate drop down box; this will be ignored, Mar 27, 2009 · Although I haven't done any ABX tests between flac and wav files, I listen exclusively to flac files on my computer. But it's how I feel at the moment, I copied . Lossless-DDisC: 0. g. CD, brief format of Compact Disc, is a digital optical disc data storage format. Welcome to Ektoplazm, the world's #1 source for free and legal psytrance, techno, and downtempo music in MP3, FLAC, and WAV format. for playback freely. 8M. 1. Archive music quality lossless best flac music of different genres and directions in the flac format, CDrip, Vinyl Rip, Multi channel DTS as well as test-disc, which you can download free and without registration. Available in the US, UK, Germany and Japan subscribers will be able to access 50 million songs in High Definition (CD Quality) and ‘millions of songs’ in Ultra High Definition (HiRes). Customers and visitors can download classical music in high quality FLAC or MP3 and find out more about classical music. Select a single song, then press Ctrl+A to select all songs. tamilanda. You can download Flac/Lossless/Hi-Res 24 bit Music for free on our site High Quality Save Audio in 1 Click Wide Choice of Songs and Albums &#10144;Enter the website Music lossless for lovers of good sound. Conversion of FLAC audio files to MP3 audio files by using this downloadable Windows 10 app has a straightforward user interface. flac 2008-06-07 05:18 1. Jun 25, 2008 · I have e music. Any Audio Converter allows you to read, add or edit media ID3-tag information including title, artist, album, album cover, year, genre and track of both original and converted files if the button is shown in green. Have fun and enjoy! HDtracks high resolution music downloads. I can't recall ever hearing an artifact while just listening to music. Tracklist & Download Links This recording is a co-production with Radio SRF 2 Kultur To Tchaikovsky - Symphony No. The “flac. 987305 INDEX 00 03:37:51 FILE "10 En Rose Er Utsprungen (Lo How A Rose E'er Blooming). org - Index of / penbis vagene and bobs random Media in category "FLAC files of music by Ludwig van Beethoven" The following 63 files are in this category, out of 63 total. Menu. Jan 05, 2013 · I'm glad you had a chance to try it, wuwhere. exe” will be needed to save the song. Come and download Lossless absolutely for free. ogg 4 min 16 s; 33. 1, DVD, FLAC, APE| Archive of surround and lossless music for free FLAC (Free Lossless Audio Compression) files are CD quality audio. The same song in 3 formats of ape, flac and mp3 of 320bit are played on my computer (gigabyte motherboard / realtek 889 onboard audio), itouch 4 and Sony Dej011 portable player. Downloads J-Rock J-Pop Music MP3/AAC/FLAC/ALAC Jan 05, 2013 · I'm glad you had a chance to try it, wuwhere. If I'm doing a few processor/memory intense things on the computer at the same time as listening, usually the music will just pause for a second or so to Dec 24, 2019 · Index Page for Mp3 albus Releases Last Update: 24/12/2019 COLLECTIONS ANIMEX 1200 SERIES AIKAWA NANASE (COMPLETE DISCOGRAPHY) Cocoa The site is dedicated to flac music in lossless. 12 tones Aerosmith Music fr age of reason amok beverlei brown Billie Eilish blackberry smoke blacklisted bryan ferry Bugs Henderson cardigans caroline rose christmas organ Der Rote Milan eddie spaghetti electric light orc elizabeth george erasure ethan brosh false witness Farin Urlaub flac gary moore ghalia giant swan Green Day People regularly ask about where to buy CD quality or hi-res downloads (legitimately!) so here is a list of sites I know of. Of. Jun 14 18:48 : exception: Bad song index due to abrupt stopping after a few songs and just added the FLAC stream to "My Web Radios". This order may qualify for FREE SHIPPING. Open the CUE file with Notepad program, you will find that it records the singers of entire album in FLAC files, album name, FLAC file name, track number, each track title, artist, start time and end time. Bay torrent - You won’t find all the songs but some popular Linkin park songs and Eminem and Enrique songs. Quality: FLAC 16 bit / 44. May 07, 2011 · Index of /Music/Blues Index of Blues Music Name Last modified Size Description. Base. Step 3: From Foobar2000 player, right click on any songs and then use the “Convert” option. 8MHz/64fs Download FLAC Downloads FLAC 176kHz/24bit Download FLAC 192kHz/24bit Download FLAC 352kHz Mar 11, 2012 · If you’ve downloaded an album in . And then extract it to some place. All the songs are Faadu On this New Eric Bibb album the basic concept is to cover the complete range of traditional folk/blues songs which were an inherent part of his childhood up to the present time with his own inimitable compositions. Aug 27, 2015 · In Windows Media Player's library, select Music on the left, and type type:flac in the Search field. i listen to a lot of music on my mobile phone (mp3), so i convert some cds to mp3 320 to put them there. FLAC is an open format with royalty-free licensing and a reference implementation which is free software. Home; It seems we can’t find what you’re looking for. London Philharmonic Orchestra - Symphony No. Adjust settings once and then just drag the FLAC files onto the droplet. com you can download lossless music in popular formats FLAC, APE, ALAC, MP3, M4A. Free MP3 Downloads. Dec 11, 2017 · To put it in simpler terms, let’s say you have a 2 second part of the song that’s silent, that silence at 16bits/sample and 44100 samples a second wastes almost half a MB, an FLAC encoder can reduce this wasted space by replacing the silence with a small amount of data marking it as silence vs encoding 88 thousand strings of 0000000000000000. The record industry majors are rather dim, in addition to being greedy, so I wouldnt hold out much hope for them ever offering FLAC files or any other open format as standard for sales of their Music Machine Music Revelation Ensemble Music Tapes Musica Elettronica Viva Musica Transonic Muslimgauze Mussolini Headkick Mutemath Mutual Benefit Muz My Bloody Valentine My Cat Is An Alien My Chemical Romance My Dad Is Dead My Dying Bride My Life With The Thrill Kill Kult My Morning Jacket My Sister's Machine Mychael Danna Mynabirds Myra Ektoplazm Free Music Portal. history, having sold more than 29 million copies. 1kHz Total Time: 00:41:32 Total Size: 117 / 256 / 455 mb FLAC has higher bitrate than mp3. i still think that you lose some sound elements in mp3 - that's why i prefer flac or wav. Icon Name Last modified Size  24-bit_192kHz. mp3, 2014-08-09 05:00, 625K. INDEX 00 04:57:37 FILE "09 The Christmas Song. 00b: October 5 2013 at 22:55: Abba-Golden_Greatest_Hits-CDM-2006-LOSSLESS-JVL: 0. Okay, here is some more free FLAC format music. where you can rip audio tracks to alac. Daily updates of the music database. [DIR], JAZZ/, 1995-10-11 00:04, -. Dec 04, 2016 · Free Lossless Audio Codec (FLAC) FLAC is a lossless codec developed by Josh Coalson. This is similar to how Zip works, except with FLAC you will get much better compression because it is designed specifically for audio, and you can play back compressed FLAC files in your favorite player (or your car or home stereo, see Free Lossless Audio Codec. People regularly ask about where to buy CD quality or hi-res downloads (legitimately!) so here is a list of sites I know of. 55 (Beethoven) - 1st Movement (Part 2) - Allegro con brio - Hmv-db2346-2ea841. Media in category "FLAC files of music" The following 28 files are in this category, out of 28 total. Choose Delete from library only, then click OK. 1 kHz/16 bit) FLAC files about the formats' various weaknesses but the Fidelity Potential Index gives a Some people love songs and listen to the words, others adore virtuosity  Great for an mp3 containing multiple tracks (for example an entire CD in one file) and splitting it up into individual Split MP3, WAV, OGG and FLAC audio files. Both they had been very quick Nightwish - Dаrк Раssiоn Рlау [3СD] (2007) In This Moment - Blood At The Orpheum (Live) [WEB] (2014 Аnnihilаtоr - Fеаst (2СD) [Limitеd Еditiоn] (2013 Song Categories are Experimental, and I need your help I have just added Song Categories as an experimental feature of this archive. 11 Oct 2019 04-Dec-2019 20:36 6239265 Au_Ra, Alan Walker - Ghost (2019). Is there a program that could run through an entire directory tree and normalize the loudness of all the audio files it finds to the same level? Bleep - We sell the best music from the best record labels and artists in the world. Then say an average song is 4 minutes long, that means roughly 2500 songs. audio site provides FLAC songs ripped from good source. 9 % Test CRC 27C3283E Copy CRC 27C3283E Track not present in AccurateRip database Copy OK Track 3 Filename G:\New folder\Various - Songs 4 Worship 50 - 2009 (FLAC)\03. flac 2008-12-25 20:39 2. Step 2: Download the FLAC encoder for Windows from here. Stereophile has been criticized  The playable AAC/MP3/WMA/WAV/FLAC/DSD file (hereafter called Audio iTunes m4a Meta-data (Song Info. Jun 27, 2019 · The CUE file is the index file associated with FLAC file, if there is no CUE file, it can't select the song when playing FLAC file. ALAC Downloads ALAC 176kHz/24bit Download ALAC 192kHz/24bit Download ALAC 44kHz/24bit Download DSD Downloads DSD (Double Rate) 5. Subscriptions start at $12. Note that a bitrate of 1100kbps for a song is on the "difficult to encode" side. Hyperion offers both CDs, and downloads in a number of formats. S. It's also available for Mac. Download the transformed M4A audio recordsdata to your native laptop. Download the latest version of EAC Advertisement / Anzeige Exact Audio Copy V1. GetMetal CLUB - Download New Metal and Core Releases for free Index of /music/Stevie Wonder - Discography (1967 - 2005) [FLAC]/1976 Songs In The Key Of Life [Remaster 2000]/Disc 1. On our site you can download lossless music for free and without registration, favorite performers in flac format, for fans to listen to vinyl digitization - Vinyl rip, gourmets of the music world who want to listen to multi-channel music are offered - Audio-DVD, SACD, DTS 5. flac" WAVE INDEX 01 00:00:00 TRACK 10 AUDIO TITLE "En Rose Er Utsprungen (Lo How A Rose E'er Blooming)" ISRC NO2NJ1657110 REM REPLAYGAIN_TRACK_GAIN -0. Complete collection of albums of famous music groups OneIndex chevron_right / chevron_right Music chevron_right [Hi-Res][LoveLive! μ's Music Collection][24Bit 96KHz][FLAC] chevron_right soldier game 文件 expand_more 修改时间 expand_more Sep 26, 2014 · It provides bit-perfect copies of CD-quality music (16/44. Apr 27, 2014 · 60 GB is 10,024 times 6 MB, so roughly ten thousand minutes audio. At its core, FreeRIP MP3 Converter reads audio from your CDs and allows you to save them to your computer in a variety of digital formats including WMA, MP3, Ogg, Wav, or FLAC audio files (this process is known as CD ripping or CD to MP3 conversion and converter MP3). 24 bit FLAC at the same price as FLAC16/MP3. Where to find . 1 kHz, the USB audio server is fully configured, and the connected DAC sounds great. I haven't looked at the files in the OP though. But when I rip to image  CDJ33001 · SCHUBERT: The Hyperion Schubert Edition, Vol. songs 1995-12-29 23:01, -. These are high resolution 24bit FLAC files. The Blues Project - Tommy Flanders, Danny Kalb, Steve Katz, Al Kooper, Andy Kulberg, Roy Blumenfeld Of The Blues Project Downloads J-Rock J-Pop Music MP3/AAC/FLAC/ALAC Audio sources encoded to FLAC are typically reduced to 50–70% of their original size, similar to other lossless formats, though the final size depends on the density and volume of the music being compressed, and, with some music, file size can be reduced by as much as 80%. Please post a comment if there are any I've missed. This offer is good on orders over $49. Tamil, Telugu, Malayalam, Hindi Lossless FLAC Albums Tamil, Hindi, telugu & Malyalam 24 BIT 16 BIT Lossless HD FLAC Songs in Tamilanda. Free Lossless Audio Codec is supported by Xiph. I can't get Groove to index my shared folder of music on a Windows 2012 server I have a Windows 2012 AD network at home ("why", you may ask, the answer is that I think it is great to learn thing for my work as an IT specialist). for lossless data compression of digital music. Audio coding format, and its reference audio codec implementation, developed by Apple Inc. CNET explains what FLAC is, where to buy music in the format, and how to play it on your phone, computer or hi-fi. flac" FLAC If still no luck, try changing the FLAC filename and the FILE reference in the CUE file to something basic like "album. 00b: October 5 2013 at 22:55: Aerosmith - Greatest Hits - Flac Parent Directory-15-14-13-12-11-10-09-08-07-06-05-04-03-02-01: page 01 of 05 +01 +02 +03 +04 +05 +06 +07 +08 +09 +10 +11 +12 +13 +14 +15 <- Back | Next page -> Music lossless for lovers of good sound. NOTE: Scientific listening tests have shown that people can't tell any audible difference moving beyond CD quality sound, since CDs already are technically slightly more then capable of producing sounds beyond human hearing. May 26, 2010 · FLAC stands for Free Lossless Audio Codec. Parent Directory - Al Kooper/ 05-Dec-2009 15:24 - Alan Price - I 5KPlayer is the best free FLAC music downloader and player which allows you to free download lossless FLAC music, Hindi FLAC songs, Tamil songs and more Bollywood FLAC music from 300+ online video sites. Exclusive releases and albums of various styles and music genres in high quality are available to you to listen, buy and download. Lossless & Hi-Res FLAC Albums Downlod FLAC stands for Free Lossless Audio Codec, an audio format similar to MP3, but lossless, meaning that audio is compressed in FLAC without any loss in quality. lolicore. 8MHz/64fs Download FLAC Downloads FLAC 176kHz/24bit Download FLAC 192kHz/24bit Download FLAC 352kHz Exclusive releases and albums of various styles and music genres in high quality are available to you to listen, buy and download. 49 lolicore. I have a ~15 GB music collection comprised of MP3, FLAC and M4A files. wav Peak level 98. If you have any questions about this content, please contact the administrators of this directory, who made it publicly available. Alleluia Music - He Is Exalted. flac" WAVE INDEX 01 00:00:00 TRACK 11 AUDIO TITLE "White Christmas" Digital audio compressed by FLAC’s algorithm can typically be reduced to between 50 and 60 percent of its original size and decompress to an identical copy of the original audio data. It rips to FLAC tracks just fine, Accurip is succesful. le. 3 in E-flat major, Op. Org Foundation. Since launching in 2006, Juno Download has grown to be one of the world’s biggest specialist music download stores. 00b: October 5 2013 at 22:55: A-Ha - The Singles 1984-2004 (Flac) 0. Aug 25, 2018 · Can you directly import a flac music file into iTunes, or do you have to convert it beforehand? If so, what app would you suggest to convert to acc? 2020 intmusic. flac 11:33 7057428 Hiphop Tamizha - Breakup Song (From _Naan Sirit. This time it is (mostly) classical music. Complete your collection. flac format songs. This is such a welcome and very needed upgrade. net был заблокирован в Российской Федерации, но продолжает полноценно функционировать в других регионах. Right-click the selection and select Delete. Only one FLAC file can be processed when this option is used. Including: Electronic, Techno, Electro, House, Experimental, Grime, Dubstep, Hip Hop, Alternative, Indie, and many more. 703 Greatest 1980's music hit Singles [FLAC] 0. wav files or flac. The following guide will show you easy methods to convert FLAC recordsdata on Mac inside 3 easy steps. 90 dB REM REPLAYGAIN_TRACK_PEAK 0. Download real 320kbps MP3 and FLAC music to your computer or smartphone for free. The application has an easy-to-use UI and users can drag their FLAC files onto the program and drop them then the conversion would start immediately and convert all media files in bulk. Following up on Etude and Reflections, her recent, highly acclai Is choosing Schumann for a first recording bold to the point of eClassical. 2MHz/256fs Download DSD (Single Rate) 2. [TXT], INDEX, 1995-07-19 23:04, 2. Audio sources encoded to FLAC are typically reduced to 50–70% of their original size, similar to other lossless formats, though the final size depends on the density and volume of the music being compressed, and, with some music, file size can be reduced by as much as 80%. ) Format, Free Lossless Audio Codec (FLAC) . This is a lot of manual work, and it's something that needs to be done again and again as you add music. The codec's open-source programming library is available under Windows, Unix family (Linux, *BSD, Solaris, Mac OS X, IRIX), BeOS, OS/2, Amiga. infn. (1965) [flac] This content is being served through the AFS server afs03. txt) that contains the the data part), so you can spot simple corruptions during uploads/downloads. 2 Description Open source bitstream encoding format designed for lossless compression of LPCM audio data, with many of its default parameters tuned to CD-quality music data. However, as this is for a phone, FLAC is really overkill. com is a completely virtual record label and a secure online store open 7 days a week, 365 days a year. Usually, songs compress to the 800/900kbps range. FLAC To MP3 Converter Online runs 100% locally on your Browser and it converts FLAC files on your PC, and it will save the converted MP3 from the browser to your destination folder in 2-3 seconds once you click the "Download" button. Their Greatest Hits (1971–1975), remains one of the top selling albums in U. 8MHz/64fs Download DSD Multichannel 2. Digital audio compressed by FLAC’s algorithm can typically be reduced to between 50 and 60 percent FLAC To MP3 Mac also transfers the tag information and meta data from FLAC into MP3, so users can keep all tags in the converted songs. flac, 24-Jan-2016 10:49, 48M. Perhaps searching can help. CUE index file is 16-bit FLAC Preview The Greatest Showman (Original Motion Picture Soundtrack) [Sing-a-Long Edition] The Greatest Showman (Original Motion Picture Soundtrack) [Sing-a-Long Edition] Various Artists 2018 From £11. Stream 1000+ Gov't Mule Shows On  Index of /pub/midi. We've served 25 million Creative Commons-licensed releases and 200 million tracks since 2007. I can't begin to tell you poor was my previous copy of this LP! Sometimes, an mp3 may be lacking, but the cover art is a saving grace. 6MHz/128fs Download DSD (Quad Rate) 11. org - Index of / penbis vagene and bobs random Ok, simple thing: the FLAC and CUE are in the same folder, right? The FILE reference has to be exact, e. FLAC; Free Lossless Audio Codec is an audio coding format for lossless compression of digital audio, and is also the name of the free software project producing the FLAC tools, the reference software package that includes a codec implementation. a large collection. Free Lossless Audio Codec (FLAC) is a codec for lossless audio compression. FreeRIP MP3 Converter is an advanced CD to MP3 Converter that comes packed with features. --overwrite-existing (-o) - If --rename is specified then flactag will overwrite existing files when renaming. To enable you to sample on High-Resolution music file (96 kHz/24 bit FLAC). And for tamil songs, hd. We specialise in finding the highest quality products regardless of format or genre. You can't play over 45 million Apple Music songs on the most popular devices due to unique M4P format. it AFS cell . Welcome to Juno Download, a digital download store that boasts a staggeringly wide selection of songs, instrumentals and tools for DJs, electronic musicians and listeners alike. Downloads J-Rock J-Pop Music MP3/AAC/FLAC/ALAC Darbar (2020) - Tamil - 6 Tracks - [FLAC]- UHD Cover - Anirudh Ravichander Musical Telugu - Complete Album (7 Songs) - FLAC - iTunes - TRUE MP3 [320Kbps & 128Kbps] Oct 12, 2010 · This makes the music player re-read your music files, picking up the change in Album Artist you applied earlier. It is going to take a couple of minutes. Contains 14 songs including such traditional songs as “John Henry”, “Goin’ Down Slow” and “Sittin on Top of the World”. That was a quote from a TV series in the UK called Goodnight Sweatheart. FLAC has higher bitrate than mp3. Listen to all four tracks below. txt 2008-12-25 20:37 99 [SND] 24-bit_96kHz_RICE2_pop. When encoding a WAV file to FLAC the same minute of music will take up anywhere from 4. Please use the dropdown buttons to set your  I'm trying to understand what is going on here. So I’m starting to use open directories to get some music in FLAC and it’s awesome! I love it! But I’m scared to get something with a virus. Depending on the original WAV files, the FLACs of the same files will use 40-60% of the original drive space. Haldeman, Ehrlichman, Mitchell and Dean (Watergate Song). Apart from that, this FLAC music downloader is also a badass FLAC music player to play FLAC on both Windows 10 and macOS. 5 % Track quality 99. Dec 14, 2019 · FLAC (tracks), Lossless | Folk Rock | 14:56 | 76 Mb Legacy Recordings is celebrating the 50th anniversary of Simon and Garfunkel’s Bridge Over Troubled Water with the debut release of Live At Carnegie Hall 1969, a four-song EP available for streaming only. But they don't provide a way to download all songs in an album at once. Note that they must have music available in a lossless or high-res Media in category "FLAC files of music by Ludwig van Beethoven" The following 63 files are in this category, out of 63 total. [SND] [SND ], 2L-038_MQA2016-176k-24b_01. I don't want to waste time by downloading each file and moving it into a directory. cue file that should be included in the download. mp3, 2015-11-06   Spanish Love Songs – Brave Faces Everyone (2020) [FLAC] · February 15, 2020 · Spanish Love Songs – Brave Faces Everyone (2020) [FLAC]  26 Nov 2019 CD lossless quality recordings: 1411 kbps (44. cue file. Here it opens, but i have only one song of 45 min. A cue sheet, or cue file, is a metadata file which describes how the tracks of a CD or DVD are INDEX 01 is required and denotes the start of the track, while INDEX 00 is optional and denotes the pregap. Try out sample tracks to experience High-Resolution Audio. After that, click on the “Quick convert” option. flac --force --best ERROR: input file song. highest compression; default is -5). -. Free Ground shipping in the Continental U. This Audio Format is like MP3, but has lossless benefits, it means that audio is compressed in FLAC but remains with original sound quality. net This site does not store any files on its server. only. 1K. The site is also available in several languages. flac, 28-Apr-2016 23:19, 305M. Lossless & Hi-Res FLAC Albums Downlod Here at Allflac. FLAC can reduce audio sources to 50-60 per cent of their original size. FLAC to MP3 Converter is a useful audio editor that can is tailor-made for bulk abs single conversion of FLAC audio clips to MP3 format. For a 128 GB micro SD, simply double it. 99/month for new subscribers and current subscribers to Amazon Music pay $5/month plus their regular plan fee in the US. Single big *. 4 (including CDRDAO and Flac packages) last changed Jan 27, 2019 · All modern codecs are included: AAC, MP3, Vorbis, WMA Professional, WMA Lossless, FLAC. Thanks to AudFree Apple Music Converter, you can convert Apple Music and iTunes M4P songs to MP3, FLAC, etc. 00b: October 5 2013 at 22:55: Ace. 2L-038_01_stereo_FLAC_44k_16b. My guess here is that the index was getting used somehow? 20 Mar 2018 It doesn't even index these problematic FLAC files. FLAC stands out as the fastest and most widely supported lossless audio codec, and the only one that at once is non-proprietary, is unencumbered by patents, has an open-source reference implementation and has several other independent implementations. flac, 2016-12-28 07:51, 9. The. flac + music. To play flac files without first converting them, I recommend VLC, it's free and plays almost every audio and video format. flac has an ID3v2 tag. 8M [TXT] 24-bit_192kHz. that the core settings are actively adapted for each and every song you play in iTunes. While I have written the software to do handle song categories and to automatically index and cross-reference the categories, I do not have the time or the expertise to actually go and figure out what category each song of the archive belongs to. Some folks may not be able to play this type of file, so I'm sharing this link for people who know that they are able to play On this New Eric Bibb album the basic concept is to cover the complete range of traditional folk/blues songs which were an inherent part of his childhood up to the present time with his own inimitable compositions. We provide fast downloadable and reliable service for you. 1) or even higher (24/192k - known as studio quality). 4 Limited offer. Close Windows Media Player. 73 MB Download club dance music MP3 and FLAC, Dance compilation, Daily updates club music, Best mixes and sets, Radio show Jun 27, 2019 · The CUE file is the index file associated with FLAC file, if there is no CUE file, it can't select the song when playing FLAC file. Сайт Turbobit. Some folks may not be able to play this type of file, so I'm sharing this link for people who know that they are able to play I wouldn't even bother if there's no 100% Log. [SND] . Flac beat rate may range from 800kbps to 1500kbps whereas mp3 files are available in 128kbps, 190kbps and 320kbps. May 27, 2018 · Step 1: Open the CUE file in Foobar2000 and then it will list all the songs from it. Genre / Song; Playlists; Personal rating; All Tracks; Track Title Index support for PCM (WAV) and FLAC files at bitrates of up to 384 kHz (32-bit resolution). There are a number of reasons for wanting to do this, the most common is to create individual MP3s of each track, rather than one long MP3 of the entire album. APTX chevron_right / chevron_right Music chevron_right [Hi-Res][LoveLive! μ's Music Collection][24Bit 96KHz][FLAC] chevron_right Mermaid festa vol.2 ~Passionate~ 文件 expand_more 修改时间 expand_more By admin flac-music 2020, Country, Americana, Folk, Hi-Res & Vinyl 0 Comments. Oct 08, 2016 · Eagles – The Studio Albums 1972-1979 (2013) [HDTracks FLAC 24bit/192kHz] One of the most successful groups of the 1970s, The Eagles scored six #1 albums and five number #1 singles. Music ( Mp3 Wav Ac3 Ogg Flac Wma M4a Index Of. 2002. Net (1965) [flac] This content is being served through the AFS server afs03. 2020 intmusic. As such, since FLAC is a lossless codec, and lossless codecs *reduce the file size* (not the quality), the bitrate becomes smaller. --override-discid (-O) - Instead of calculating disc ID from the cuesheet, flactag will use the provided disc ID to query MusicBrainz. Artist: Raymond Van Het Groenewoud Title: Speel Year Of Release: 2020 Label: WM Benelux BV Genre: Pop, Singer/Songwriter Quality: mp3 320 kbps / flac lossless / flac 24bits - 44. Normally, (as with ape+cue) when you open the files in the burning program, you wil have e list of the songs to burn. FLAC (Free Lossless Audio Codec), Version 1. FLAC. If I'm doing a few processor/memory intense things on the computer at the same time as listening, usually the music will just pause for a second or so to The site is dedicated to flac music in lossless. FLAC To M4a With Tags Archive. I have filled in the tag information. Grossly oversimplified, FLAC is similar to MP3, but lossless, meaning that audio is compressed in FLAC without any loss in quality. 22 Mar 2017 However, when it comes to flac files (and I assume by extension ogg files (dont have Songs shows songs but no other metadata is really used (genre/artist etc) . Nightwish - Dаrк Раssiоn Рlау [3СD] (2007) In This Moment - Blood At The Orpheum (Live) [WEB] (2014 Аnnihilаtоr - Fеаst (2СD) [Limitеd Еditiоn] (2013 Download FLAC 16bit, 24bit Music of all genres and styles. 73 MB Download club dance music MP3 and FLAC, Dance compilation, Daily updates club music, Best mixes and sets, Radio show Audio sources encoded to FLAC are typically reduced to 50–70% of their original size, similar to other lossless formats, though the final size depends on the density and volume of the music being compressed, and, with some music, file size can be reduced by as much as 80%. 1 kHz (Tracks) Artist: Nat King Cole Title: Hittin' The Ramp: The Early Years 1936-1943 Released: 2019 Style: Vocal, Jazz, Swing, Traditional Pop, Jump Blues RAR Size: 1. My headphone is Creative Aurvana Live. Re: Flac to 320kbps mp3 Reply #1 on: May 17, 2013, 12:21:25 PM if you are using lame, just use the Archiving encoding profile in MB (see the File Converter preferences) which defaults to 320CBR Apple has purportedly included full playback support for FLAC audio files in iOS 11 so you can blast HQ music from your iPad and iPhone devices. 01 – Goethe & Schiller Settings Archive Service; also available on CDS44201/40034571130019 . Anette Maiburg, Alexandra Cravero, Emmanuel Ceysson, Karina Buschinger, Wen Xiao Zheng, Guido Schiefen, Mathias Haus 5KPlayer is the best free FLAC music downloader and player which allows you to free download lossless FLAC music, Hindi FLAC songs, Tamil songs and more Bollywood FLAC music from 300+ online video sites. High Resolution Music Downloads and free HiRes Music Downloads The CD collection is ripped in 16 Bit / 44. net Enter the content which will be displayed in sticky bar Tamilanda. The pregap of Track 1 is used for  8 Mar 2008 As Wes Phillips recently reported on this website, CD sales are down and legal downloads of audio files are up. OneIndex chevron_right / chevron_right Music chevron_right [Hi-Res][LoveLive! μ's Music Collection][24Bit 96KHz][FLAC] chevron_right soldier game 文件 expand_more 修改时间 expand_more Free MP3 Downloads. 12 Gb . i try to have all my important music lossless - much of it even as . FLAC files to my phone, superb, Groove can play them, so CD quality sound (Almost) on my 950XL and Surface Pro through Groove. Nov 25, 2010 · Classical music benifits more then any other type of music from flac's quality. Fast downloads. This proves that the flac *. CUE index file is Magic FLAC to MP3 Converter is a FLAC batch converter that can convert FLAC file (Free Lossless Audio Codec) to MP3 and WMA,WAV files. 4 (including CDRDAO and Flac packages) last changed. On our site you can download lossless music for free and without registration, favorite performers in flac format, for fans to listen to vinyl digitization - Vinyl rip , gourmets of the music world who want to listen to multi-channel music are offered - Audio-DVD, SACD, DTS 5. flac" Mar 27, 2009 · Although I haven't done any ABX tests between flac and wav files, I listen exclusively to flac files on my computer. Net Andrew's Music Music Download surround and lossless music | DVD-Audio, DTS-CD, SACD, Audio-DVD, DTS 5. I hope this advice makes your music collection easier to navigate! A large number of the country's advertising specialists have been influencing themselves in the legend of psychiatry and the sociologies with a specific end goal to expand their expertise at "designing" our agree to their recommendations. the most important cds i actually buy - but that's just very few. If you continue to see a shipping charge on your order, please review the terms of this offer. 8 Feb 2019 The FLAC encoder tab is only available if Audiocd IO slave was compiled When checked, add a description of the song to the file header. flac" WAVE TRACK 01 AUDIO TITLE "Dark Chest of Wonders" PERFORMER "Nightwish" INDEX 01 00:00:00 TRACK 02 AUDIO TITLE "Wish I Had An Angel" PERFORMER "Nightwish" INDEX 00 04:28:50 INDEX 01 04:30:50 TRACK 03 AUDIO TITLE "Nemo" PERFORMER "Nightwish" INDEX 00 08:36:52 INDEX 01 08:38:52 TRACK 04 AUDIO TITLE "Planet Hell" PERFORMER "Nightwish" INDEX 00 13:14:61 INDEX 01 13:16:61 TRACK 05 AUDIO TITLE "Greek Mary's Blood" PERFORMER "Nightwish Single big *. What is FLAC? The high-def MP3 explained. Collection. flac albums free download. Filename G:\New folder\Various - Songs 4 Worship 50 - 2009 (FLAC)\02. Both FLAC and MP3 are audio file formats which store audio. Open the FLAC file in Audacity, select the section of the file you want to save as an the first and second tracks (you may need to zoom in on sections to do this). Wide choice fresh albums, various artists compilations eClassical. Here is a list of best free software to batch convert FLAC to MP3 for Windows. Since FLAC is always lossless the effect of the compression level is small and cannot be compared to the compression of lossy formats. 49 "FLAC to the left of us, FLAC to the right of us, and I said FLAC you Fritz". flac format, and it’s one big file, you can split it into multiple tracks (songs) via the . 16-bit FLAC Preview The Greatest Showman (Original Motion Picture Soundtrack) [Sing-a-Long Edition] The Greatest Showman (Original Motion Picture Soundtrack) [Sing-a-Long Edition] Various Artists 2018 From £11. APTX chevron_right / chevron_right Music chevron_right [Hi-Res][LoveLive! μ's Music Collection][24Bit 96KHz][FLAC] chevron_right Mermaid festa vol.2 ~Passionate~ 文件 expand_more 修改时间 expand_more Top 6 sites for buying FLAC music. Have fun and enjoy! Download FLAC discography of legendary pop and rock singers. index of flac songs